The Meg (2018) BluRay 720p Org Multi Audio [Hindi + Eng + Tamil + Telugu] x264 Esub ~TMV~

Poster

iMDB

Imdb Picture Title: The Meg
Year: 2018
Runtime: 113 minutes
Votes: 1944
Rating: 6.5/10
Language: English
Country: China, USA
All Genres: Action, Horror, Sci-Fi, Thriller
Plot Outline: Five years ago, expert sea diver and Naval Captain Jonas Taylor encountered an unknown danger in the unexplored recesses of the Mariana Trench that forced him to abort his mission and abandon half his crew. Though the tragic incident earned him a dishonorable discharge, what ultimately cost him his career, his marriage and any semblance of honor was his unsupported and incredulous claims of what caused it – an attack on his vessel by a mammoth, 70-foot sea creature, believed to be extinct for more than a million years. But when a submersible lies sunk and disabled at the bottom of the ocean – carrying his ex-wife among the team onboard – he is the one who gets the call. Whether a shot at redemption or a suicide mission, Jonas must confront his fears and risk his own life and the lives of everyone trapped below on a single question: Could the Carcharodon Megalodon – the largest marine predator that ever existed – still be alive … and on the hunt? Written by Warner Brothers
Tagline: Pleased to eat you.
Director: Jon Turteltaub
Writing By: Dean Georgaris,Jon Hoeber,Erich Hoeber,Steve Alten,
Produced By: Kenneth Atchity,Belle Avery,Jie Chen,Lorenzo di Bonaventura,Randy Greenberg,Tom Hern,Ben Erwei Ji,Wayne Wei Jiang,Ming Beaver Kwei,Gerald R. Molen,Chantal Nong,Barrie M. Osborne,Chunzi Wang,Colin Wilson,Chi-Li Wong,Catherine Xujun Ying,
Music: Harry Gregson-Williams
Cast:
Jason Statham as Jonas Taylor
Bingbing Li as Suyin
Rainn Wilson as Morris
Cliff Curtis as Mac
Winston Chao as Zhang
Shuya Sophia Cai as Meiying
Ruby Rose as Jaxx
Page Kennedy as DJ
Robert Taylor as Heller
Ólafur Darri Ólafsson as The Wall
Trailers:
Trailer #1

Details

Name: The Meg (2018) BluRay 720p Org Multi Audio [Hindi + Eng + Tamil + Telugu] x264 Esub ~TMV~
Description:

The Meg 2018 BluRay 720p Org Multi Audio [Hindi + Eng + Tamil + Telugu] x264 Esub ~TMV~

 

 General
Format                                   : Matroska
Format version                           : Version 4 / Version 2
File size                                : 1.22 GiB
Duration                                 : 1 h 53 min
Overall bit rate mode                    : Variable
Overall bit rate                         : 1 548 kb/s

Video
ID                                       : 1
Format                                   : AVC
Format/Info                              : Advanced Video Codec
Format profile                           : [email protected]
Format settings                          : CABAC / 4 Ref Frames
Format settings, CABAC                   : Yes
Format settings, ReFrames                : 4 frames
Codec ID                                 : V_MPEG4/ISO/AVC
Duration                                 : 1 h 53 min
Bit rate                                 : 1 050 kb/s
Width                                    : 1 280 pixels
Height                                   : 534 pixels
Display aspect ratio                     : 2.40:1
Original display aspect ratio            : 2.40:1
Frame rate mode                          : Constant
Frame rate                               : 23.976 (24000/1001) FPS
Color space                              : YUV
Chroma subsampling                       : 4:2:0
Bit depth                                : 8 bits
Scan type                                : Progressive
Bits/(Pixel*Frame)                       : 0.064
Stream size                              : 850 MiB (68%)
Writing library                          : x264 core 157
Language                                 : English
Default                                  : Yes
Forced                                   : No

Audio #1
ID                                       : 2
Format                                   : MPEG Audio
Format version                           : Version 1
Format profile                           : Layer 3
Format settings                          : Joint stereo / MS Stereo
Codec ID                                 : A_MPEG/L3
Codec ID/Hint                            : MP3
Duration                                 : 1 h 53 min
Bit rate mode                            : Variable
Bit rate                                 : 128 kb/s
Channel(s)                               : 2 channels
Sampling rate                            : 48.0 kHz
Frame rate                               : 41.667 FPS (1152 SPF)
Compression mode                         : Lossy
Delay relative to video                  : -43 ms
Stream size                              : 101 MiB (8%)
Writing library                          : LAME3.99r
Encoding settings                        : -m j -V 4 -q 3 -lowpass 17 –abr 128
Language                                 : Telugu
Default                                  : Yes
Forced                                   : No

Audio #2
ID                                       : 3
Format                                   : MPEG Audio
Format version                           : Version 1
Format profile                           : Layer 3
Format settings                          : Joint stereo / MS Stereo
Codec ID                                 : A_MPEG/L3
Codec ID/Hint                            : MP3
Duration                                 : 1 h 53 min
Bit rate mode                            : Variable
Bit rate                                 : 128 kb/s
Channel(s)                               : 2 channels
Sampling rate                            : 44.1 kHz
Frame rate                               : 38.281 FPS (1152 SPF)
Compression mode                         : Lossy
Delay relative to video                  : -43 ms
Stream size                              : 100 MiB (8%)
Writing library                          : LAME3.99r
Encoding settings                        : -m j -V 4 -q 3 -lowpass 17 –abr 128
Language                                 : Tamil
Default                                  : No
Forced                                   : No

Audio #3
ID                                       : 4
Format                                   : MPEG Audio
Format version                           : Version 1
Format profile                           : Layer 3
Format settings                          : Joint stereo / MS Stereo
Codec ID                                 : A_MPEG/L3
Codec ID/Hint                            : MP3
Duration                                 : 1 h 53 min
Bit rate mode                            : Variable
Bit rate                                 : 101 kb/s
Nominal bit rate                         : 128 kb/s
Channel(s)                               : 2 channels
Sampling rate                            : 44.1 kHz
Frame rate                               : 38.281 FPS (1152 SPF)
Compression mode                         : Lossy
Delay relative to video                  : -43 ms
Stream size                              : 81.6 MiB (7%)
Writing library                          : LAME3.99r
Encoding settings                        : -m j -V 4 -q 3 -lowpass 17 –abr 128
Language                                 : Hindi
Default                                  : No
Forced                                   : No

Audio #4
ID                                       : 5
Format                                   : AAC
Format/Info                              : Advanced Audio Codec
Format profile                           : LC
Codec ID                                 : A_AAC-2
Duration                                 : 1 h 53 min
Bit rate                                 : 144 kb/s
Channel(s)                               : 2 channels
Channel positions                        : Front: L R
Sampling rate                            : 48.0 kHz
Frame rate                               : 46.875 FPS (1024 SPF)
Compression mode                         : Lossy
Delay relative to video                  : -43 ms
Stream size                              : 118 MiB (9%)
Language                                 : English
Default                                  : No
Forced                                   : No

Text
ID                                       : 6
Format                                   : UTF-8
Codec ID                                 : S_TEXT/UTF8
Codec ID/Info                            : UTF-8 Plain Text
Duration                                 : 1 h 41 min
Bit rate                                 : 51 b/s
Count of elements                        : 1409
Stream size                              : 38.1 KiB (0%)
Language                                 : English
Default                                  : Yes
Forced                                   : No

         

Category: Movies > Hollywood Dub
Lang: Hindi
Total Size: 1.22 GB

|| Download This Movie Via Single Resumable Links Size: 1.22 GB ||

Direct-1 Google Drive | Direct-2 | Direct-3 |

Watch Online Click Here

300mb movies >
300mb movies 4u >
300mb movies download in hindi dubbed >
300mbdownload movie download>
300mb movies website>
latest 300mb movies >
300mb full movie > The Meg (2018) BluRay 720p Org Multi Audio [Hindi + Eng + Tamil + Telugu] x264 Esub ~TMV~
300mb mkv movies download>
Filmywap Mkv 2018 Hindi Movie, Latest New Bollywood The Meg (2018) BluRay 720p Org Multi Audio [Hindi + Eng + Tamil + Telugu] x264 Esub ~TMV~
Hindi Full Mkv Moviez, Filmywap 2018 Hindi Film HD
Download, Worldfree4u Movie list, filmywap new Hindi The Meg (2018) BluRay 720p Org Multi Audio [Hindi + Eng + Tamil + Telugu] x264 Esub ~TMV~
Movie Download 2018 – 2017 – 2016, Hindi Mobile Movies,
HD Hindi Full Mp4 Moviez, Filmywap.com Bollywood Letest
Movies Hindi Hollywood Dual Audio Hindi Dubbed 2018 The Meg (2018) BluRay 720p Org Multi Audio [Hindi + Eng + Tamil + Telugu] x264 Esub ~TMV~
South indian Hindi Dubbed New Movie okpunjab New
Punjabi Movies 2018 Gujarati New Movies, Filmywap Hindi The Meg (2018) BluRay 720p Org Multi Audio [Hindi + Eng + Tamil + Telugu] x264 Esub ~TMV~
Movie 2016, New Marathi Movies, Tamil Movies
Tamilrockers, Telugu New Movies Download, Malayalam
Movie Download,Hd Hindi Movie Download, Bengali Movies, The Meg (2018) BluRay 720p Org Multi Audio [Hindi + Eng + Tamil + Telugu] x264 Esub ~TMV~
9xmovies Downloadhub All Mvovie Download, Bolly4u
Movies, Mkv Movies, PC Movies, DVDRip BRRip Bluray
HDRip WEBRip WEB-DL Quality Movies List 2018, The Meg (2018) BluRay 720p Org Multi Audio [Hindi + Eng + Tamil + Telugu] x264 Esub ~TMV~
Upcoming Movie List, Free Download Khatrimaza full Hindi
Movie 2015, 2016, 2017, 2018, 2019, FullHD 480p 720p The Meg (2018) BluRay 720p Org Multi Audio [Hindi + Eng + Tamil + Telugu] x264 Esub ~TMV~
1080p Pc Movies Hindi Download,
Wapka, Movierulz,Websitelist,
Movie2free,Dailymotion,Hotmovs,Fullhdfilmizlesene, The Meg (2018) BluRay 720p Org Multi Audio [Hindi + Eng + Tamil + Telugu] x264 Esub ~TMV~
Download Mp4moviez, Best Movie Site Mp4hd,300MB
Movies , 480p Movies, 720p Movies, 1080p Movies, The Meg (2018) BluRay 720p Org Multi Audio [Hindi + Eng + Tamil + Telugu] x264 Esub ~TMV~
mp4 mobile movies bollywood, new hindi movies download
in hd, full hd bollywood movies download 1080p, free hindi
movie download in hd quality, mobile movies bollywood in The Meg (2018) BluRay 720p Org Multi Audio [Hindi + Eng + Tamil + Telugu] x264 Esub ~TMV~
hindi hd, pagalworld bollywood movie download, 720p mp4
movies, 3gp mobile movie, khatrimaza south movies,
khatrimaza hollywood movies 2017, khatrimaza full, The Meg (2018) BluRay 720p Org Multi Audio [Hindi + Eng + Tamil + Telugu] x264 Esub ~TMV~
khatrimaza hollywood hindi dubbed movies 2018,
khatrimaza bollywood movies in hindi a to z 720p, The Meg (2018) BluRay 720p Org Multi Audio [Hindi + Eng + Tamil + Telugu] x264 Esub ~TMV~
khatrimaza hollywood movies in hindi a to z 720p, The Meg (2018) BluRay 720p Org Multi Audio [Hindi + Eng + Tamil + Telugu] x264 Esub ~TMV~
khatrilive, full hd 1080p bollywood movies free download,
720p mp4 movies, krazywap-com mp4 movies, new hindi The Meg (2018) BluRay 720p Org Multi Audio [Hindi + Eng + Tamil + Telugu] x264 Esub ~TMV~
movies download in hd, hd mp4 movies 300mb, hd avi The Meg (2018) BluRay 720p Org Multi Audio [Hindi + Eng + Tamil + Telugu] x264 Esub ~TMV~
mobile movies, mobile movies hollywood in hindi, mobile
movies bollywood in hindi hd, download bollywood movies
in hd quality, 300mb movies download in hindi dubbed, The Meg (2018) BluRay 720p Org Multi Audio [Hindi + Eng + Tamil + Telugu] x264 Esub ~TMV~
300mb movies hindi dubbed, new 300mb movies, 300mb
movies bollywood, 300mb movies dual audio hindi free The Meg (2018) BluRay 720p Org Multi Audio [Hindi + Eng + Tamil + Telugu] x264 Esub ~TMV~
download, 300mb mkv movies download, 300mb hindi
dubbed movies worldfree4u, 18+ dual audio eng hindi
movies, 300mb mkv movies download, 720p mkv movie
download. Hollywood Dubbed Movies, HD Hollywood Movies,
Hollywood Movies in HD, Hollywood Movies Free Download,
English Movies Download, English Movies Free Download,
HD English Movies Download, English Movies in Mp4,
300mbfilms, 300mb movies, tamilrockers, mp4movies,
mp4moviez, coolmovies, 9xmovies, 9xmovies.net,
9xmovies.in, Kickass, avimobilemovies, Avi Mobile Movies
HD, CooLmovieZ.Net, mycoolmoviez.net,

You may also like...

Leave a Reply

Your email address will not be published. Required fields are marked *

Download, Worldfree4u Movie list, filmywap new Hindi Movie Download 2018 - 2017 - 2016, Hindi Mobile Movies, HD Hindi Full Mp4 Moviez, Filmywap.com Bollywood Letest Movies Hindi Hollywood Dual Audio Hindi Dubbed 2018 South indian Hindi Dubbed New Movie okpunjab New Punjabi Movies 2018 Gujarati New Movies, Filmywap Hindi Movie 2016, New Marathi Movies, Tamil Movies Tamilrockers, Telugu New Movies Download, Malayalam Movie Download,Hd Hindi Movie Download, Bengali Movies, 9xmovies Downloadhub All Mvovie Download, Bolly4u Movies, Mkv Movies, PC Movies, DVDRip BRRip Bluray HDRip WEBRip WEB-DL Quality Movies List 2018, Upcoming Movie List, Free Download Khatrimaza full Hindi Movie 2015, 2016, 2017, 2018, 2019, FullHD 480p 720p 1080p Pc Movies Hindi Download, Wapka, Movierulz,Websitelist, Movie2free,Dailymotion,Hotmovs,Fullhdfilmizlesene, Download Mp4moviez, Best Movie Site Mp4hd,300MB Movies , 480p Movies, 720p Movies, 1080p Movies, mp4 mobile movies bollywood, new hindi movies download in hd, full hd bollywood movies download 1080p, free hindi movie download in hd quality, mobile movies bollywood in hindi hd, pagalworld bollywood movie download, 720p mp4 movies, 3gp mobile movie, khatrimaza south movies, khatrimaza hollywood movies 2017, khatrimaza full, khatrimaza hollywood hindi dubbed movies 2018, khatrimaza bollywood movies in hindi a to z 720p, khatrimaza hollywood movies in hindi a to z 720p, khatrilive, full hd 1080p bollywood movies free download, 720p mp4 movies, krazywap-com mp4 movies, new hindi movies download in hd, hd mp4 movies 300mb, hd avi mobile movies, mobile movies hollywood in hindi, mobile movies bollywood in hindi hd, download bollywood movies in hd quality, 300mb movies download in hindi dubbed, 300mb movies hindi dubbed, new 300mb movies, 300mb movies bollywood, 300mb movies dual audio hindi free download, 300mb mkv movies download, 300mb hindi dubbed movies worldfree4u, 18+ dual audio eng hindi movies, 300mb mkv movies download,