The Incredibles (2004) 1080p 10bit Bluray x265 HEVC [Org BD 5.1 Hindi + DD 5.1 English] MSubs ~ TombDoc

Poster

iMDB

Title: The Incredibles
Year: 2004
Runtime: 115 minutes
Votes: 571667
Rating: 8.0/10
Language: English, French
Tagline: Save The Day
Director: Brad Bird
Writing By: Brad Bird,
Produced By: John Lasseter,Kori Rae,Katherine Sarafian,John Walker,
Music: Michael Giacchino
Cast:
Craig T. Nelson as Bob Parr / Mr. Incredible
Holly Hunter as Helen Parr / Elastigirl
Samuel L. Jackson as Lucius Best / Frozone
Jason Lee as Buddy Pine / Syndrome
Dominique Louis as Bomb Voyage
Teddy Newton as Newsreel Narrator
Jean Sincere as Mrs. Hogenson
Eli Fucile as Jack-Jack Parr
Maeve Andrews as Jack-Jack Parr
Wallace Shawn as Gilbert Huph
Trailers:
The Incredibles: Blu-ray Release
The Incredibles

Details

Name: The Hunger Games: Mockingjay – Part 2 (2015) BluRay 720p Dual Audio [Hindi + Eng] x264 Esubs Ex…
Description:

The Incredibles (2004) 1080p 10bit Bluray x265 HEVC [Org BD 5.1 Hindi + DD 5.1 English] MSubs ~ TombDoc

                             Twice the hero he used to be…..
Org Untouched Bluray DD 5.1 640Kbps Hindi Audio

Format                                   : Matroska
Format version                           : Version 4
File size                                : 3.14 GiB
Duration                                 : 1 h 55 min
Overall bit rate                         : 3 895 kb/s

Video
ID                                       : 1
Format                                   : HEVC
Format/Info                              : High Efficiency Video Coding
Format profile                           : Main [email protected]@Main
Codec ID                                 : V_MPEGH/ISO/HEVC
Duration                                 : 1 h 55 min
Bit rate                                 : 2 848 kb/s
Width                                    : 1 920 pixels
Height                                   : 800 pixels
Display aspect ratio                     : 2.40:1
Frame rate mode                          : Constant
Frame rate                               : 23.976 (24000/1001) FPS
Color space                              : YUV
Chroma subsampling                       : 4:2:0
Bit depth                                : 10 bits
Bits/(Pixel*Frame)                       : 0.077
Stream size                              : 2.30 GiB (73%)
Default                                  : Yes
Forced                                   : No

Audio #1
ID                                       : 2
Format                                   : AC-3
Format/Info                              : Audio Coding 3
Commercial name                          : Dolby Digital
Codec ID                                 : A_AC3
Duration                                 : 1 h 55 min
Bit rate mode                            : Constant
Bit rate                                 : 640 kb/s
Channel(s)                               : 6 channels
Channel layout                           : L R C LFE Ls Rs
Sampling rate                            : 48.0 kHz
Frame rate                               : 31.250 FPS (1536 SPF)
Bit depth                                : 16 bits
Compression mode                         : Lossy
Stream size                              : 528 MiB (16%)
Language                                 : Hindi
Service kind                             : Complete Main
Default                                  : Yes
Forced                                   : Yes

Audio #2
ID                                       : 3
Format                                   : AC-3
Format/Info                              : Audio Coding 3
Commercial name                          : Dolby Digital
Codec ID                                 : A_AC3
Duration                                 : 1 h 55 min
Bit rate mode                            : Constant
Bit rate                                 : 384 kb/s
Channel(s)                               : 6 channels
Channel layout                           : L R C LFE Ls Rs
Sampling rate                            : 48.0 kHz
Frame rate                               : 31.250 FPS (1536 SPF)
Bit depth                                : 16 bits
Compression mode                         : Lossy
Stream size                              : 317 MiB (10%)
Language                                 : English
Service kind                             : Complete Main
Default                                  : No
Forced                                   : No

Text #1
ID                                       : 4
Format                                   : PGS
Muxing mode                              : zlib
Codec ID                                 : S_HDMV/PGS
Codec ID/Info                            : Picture based subtitle format used on BDs/HD-DVDs
Duration                                 : 1 h 47 min
Bit rate                                 : 273 b/s
Count of elements                        : 78
Stream size                              : 216 KiB (0%)
Title                                    : Hindi BD-PGS
Language                                 : Hindi
Default                                  : Yes
Forced                                   : Yes

Text #2
ID                                       : 5
Format                                   : PGS
Muxing mode                              : zlib
Codec ID                                 : S_HDMV/PGS
Codec ID/Info                            : Picture based subtitle format used on BDs/HD-DVDs
Duration                                 : 1 h 47 min
Bit rate                                 : 36.4 kb/s
Count of elements                        : 2406
Stream size                              : 28.1 MiB (1%)
Title                                    : Eng BD-PGS
Language                                 : English
Default                                  : No
Forced                                   : Yes

Text #3
ID                                       : 6
Format                                   : PGS
Muxing mode                              : zlib
Codec ID                                 : S_HDMV/PGS
Codec ID/Info                            : Picture based subtitle format used on BDs/HD-DVDs
Duration                                 : 1 h 47 min
Bit rate                                 : 40.4 kb/s
Count of elements                        : 2682
Stream size                              : 31.2 MiB (1%)
Title                                    : Eng BD-PGS-SDH
Language                                 : English
Default                                  : No
Forced                                   : No

         

Category: Movies > Hollywood Dub
Lang: Hindi
Total Size: 3.20 GB

|| Download This Movie Via Single Resumable Links Size: 3.14 GB ||

Direct-1 Google Drive | Direct-2 | Direct-3 |

Watch Online Click Here

300mb movies >
300mb movies 4u >
300mb movies download in hindi dubbed >
300mbdownload movie download>
300mb movies website>
latest 300mb movies >
300mb full movie > The Incredibles (2004) 1080p 10bit Bluray x265 HEVC [Org BD 5.1 Hindi + DD 5.1 English] MSubs ~ TombDoc
300mb mkv movies download>
Filmywap Mkv 2018 Hindi Movie, Latest New Bollywood The Incredibles (2004) 1080p 10bit Bluray x265 HEVC [Org BD 5.1 Hindi + DD 5.1 English] MSubs ~ TombDoc
Hindi Full Mkv Moviez, Filmywap 2018 Hindi Film HD
Download, Worldfree4u Movie list, filmywap new Hindi The Incredibles (2004) 1080p 10bit Bluray x265 HEVC [Org BD 5.1 Hindi + DD 5.1 English] MSubs ~ TombDoc
Movie Download 2018 – 2017 – 2016, Hindi Mobile Movies,
HD Hindi Full Mp4 Moviez, Filmywap.com Bollywood Letest
Movies Hindi Hollywood Dual Audio Hindi Dubbed 2018 The Incredibles (2004) 1080p 10bit Bluray x265 HEVC [Org BD 5.1 Hindi + DD 5.1 English] MSubs ~ TombDoc
South indian Hindi Dubbed New Movie okpunjab New
Punjabi Movies 2018 Gujarati New Movies, Filmywap Hindi The Incredibles (2004) 1080p 10bit Bluray x265 HEVC [Org BD 5.1 Hindi + DD 5.1 English] MSubs ~ TombDoc
Movie 2016, New Marathi Movies, Tamil Movies
Tamilrockers, Telugu New Movies Download, Malayalam
Movie Download,Hd Hindi Movie Download, Bengali Movies, The Incredibles (2004) 1080p 10bit Bluray x265 HEVC [Org BD 5.1 Hindi + DD 5.1 English] MSubs ~ TombDoc
9xmovies Downloadhub All Mvovie Download, Bolly4u
Movies, Mkv Movies, PC Movies, DVDRip BRRip Bluray
HDRip WEBRip WEB-DL Quality Movies List 2018, The Incredibles (2004) 1080p 10bit Bluray x265 HEVC [Org BD 5.1 Hindi + DD 5.1 English] MSubs ~ TombDoc
Upcoming Movie List, Free Download Khatrimaza full Hindi
Movie 2015, 2016, 2017, 2018, 2019, FullHD 480p 720p The Incredibles (2004) 1080p 10bit Bluray x265 HEVC [Org BD 5.1 Hindi + DD 5.1 English] MSubs ~ TombDoc
1080p Pc Movies Hindi Download,
Wapka, Movierulz,Websitelist,
Movie2free,Dailymotion,Hotmovs,Fullhdfilmizlesene, The Incredibles (2004) 1080p 10bit Bluray x265 HEVC [Org BD 5.1 Hindi + DD 5.1 English] MSubs ~ TombDoc
Download Mp4moviez, Best Movie Site Mp4hd,300MB
Movies , 480p Movies, 720p Movies, 1080p Movies, The Incredibles (2004) 1080p 10bit Bluray x265 HEVC [Org BD 5.1 Hindi + DD 5.1 English] MSubs ~ TombDoc
mp4 mobile movies bollywood, new hindi movies download
in hd, full hd bollywood movies download 1080p, free hindi
movie download in hd quality, mobile movies bollywood in The Incredibles (2004) 1080p 10bit Bluray x265 HEVC [Org BD 5.1 Hindi + DD 5.1 English] MSubs ~ TombDoc
hindi hd, pagalworld bollywood movie download, 720p mp4
movies, 3gp mobile movie, khatrimaza south movies,
khatrimaza hollywood movies 2017, khatrimaza full, The Incredibles (2004) 1080p 10bit Bluray x265 HEVC [Org BD 5.1 Hindi + DD 5.1 English] MSubs ~ TombDoc
khatrimaza hollywood hindi dubbed movies 2018,
khatrimaza bollywood movies in hindi a to z 720p, The Incredibles (2004) 1080p 10bit Bluray x265 HEVC [Org BD 5.1 Hindi + DD 5.1 English] MSubs ~ TombDoc
khatrimaza hollywood movies in hindi a to z 720p, The Incredibles (2004) 1080p 10bit Bluray x265 HEVC [Org BD 5.1 Hindi + DD 5.1 English] MSubs ~ TombDoc
khatrilive, full hd 1080p bollywood movies free download,
720p mp4 movies, krazywap-com mp4 movies, new hindi The Incredibles (2004) 1080p 10bit Bluray x265 HEVC [Org BD 5.1 Hindi + DD 5.1 English] MSubs ~ TombDoc
movies download in hd, hd mp4 movies 300mb, hd avi The Incredibles (2004) 1080p 10bit Bluray x265 HEVC [Org BD 5.1 Hindi + DD 5.1 English] MSubs ~ TombDoc
mobile movies, mobile movies hollywood in hindi, mobile
movies bollywood in hindi hd, download bollywood movies
in hd quality, 300mb movies download in hindi dubbed, The Incredibles (2004) 1080p 10bit Bluray x265 HEVC [Org BD 5.1 Hindi + DD 5.1 English] MSubs ~ TombDoc
300mb movies hindi dubbed, new 300mb movies, 300mb
movies bollywood, 300mb movies dual audio hindi free The Incredibles (2004) 1080p 10bit Bluray x265 HEVC [Org BD 5.1 Hindi + DD 5.1 English] MSubs ~ TombDoc
download, 300mb mkv movies download, 300mb hindi
dubbed movies worldfree4u, 18+ dual audio eng hindi
movies, 300mb mkv movies download, 720p mkv movie
download. Hollywood Dubbed Movies, HD Hollywood Movies,
Hollywood Movies in HD, Hollywood Movies Free Download,
English Movies Download, English Movies Free Download,
HD English Movies Download, English Movies in Mp4,
300mbfilms, 300mb movies, tamilrockers, mp4movies,
mp4moviez, coolmovies, 9xmovies, 9xmovies.net,
9xmovies.in, Kickass, avimobilemovies, Avi Mobile Movies
HD, CooLmovieZ.Net, mycoolmoviez.net,

You may also like...

Leave a Reply

Your email address will not be published. Required fields are marked *

Download, Worldfree4u Movie list, filmywap new Hindi Movie Download 2018 - 2017 - 2016, Hindi Mobile Movies, HD Hindi Full Mp4 Moviez, Filmywap.com Bollywood Letest Movies Hindi Hollywood Dual Audio Hindi Dubbed 2018 South indian Hindi Dubbed New Movie okpunjab New Punjabi Movies 2018 Gujarati New Movies, Filmywap Hindi Movie 2016, New Marathi Movies, Tamil Movies Tamilrockers, Telugu New Movies Download, Malayalam Movie Download,Hd Hindi Movie Download, Bengali Movies, 9xmovies Downloadhub All Mvovie Download, Bolly4u Movies, Mkv Movies, PC Movies, DVDRip BRRip Bluray HDRip WEBRip WEB-DL Quality Movies List 2018, Upcoming Movie List, Free Download Khatrimaza full Hindi Movie 2015, 2016, 2017, 2018, 2019, FullHD 480p 720p 1080p Pc Movies Hindi Download, Wapka, Movierulz,Websitelist, Movie2free,Dailymotion,Hotmovs,Fullhdfilmizlesene, Download Mp4moviez, Best Movie Site Mp4hd,300MB Movies , 480p Movies, 720p Movies, 1080p Movies, mp4 mobile movies bollywood, new hindi movies download in hd, full hd bollywood movies download 1080p, free hindi movie download in hd quality, mobile movies bollywood in hindi hd, pagalworld bollywood movie download, 720p mp4 movies, 3gp mobile movie, khatrimaza south movies, khatrimaza hollywood movies 2017, khatrimaza full, khatrimaza hollywood hindi dubbed movies 2018, khatrimaza bollywood movies in hindi a to z 720p, khatrimaza hollywood movies in hindi a to z 720p, khatrilive, full hd 1080p bollywood movies free download, 720p mp4 movies, krazywap-com mp4 movies, new hindi movies download in hd, hd mp4 movies 300mb, hd avi mobile movies, mobile movies hollywood in hindi, mobile movies bollywood in hindi hd, download bollywood movies in hd quality, 300mb movies download in hindi dubbed, 300mb movies hindi dubbed, new 300mb movies, 300mb movies bollywood, 300mb movies dual audio hindi free download, 300mb mkv movies download, 300mb hindi dubbed movies worldfree4u, 18+ dual audio eng hindi movies, 300mb mkv movies download,